Enable / Włącz Javascript
 Widok 
 Kategorie 
 Nitro Torrent w sieci 
 Top 10 użytkowników 
 Dirty Dancing *2017* [1080p.BluRay.H264.AAC-RARBG] [ENG]

Dirty Dancing *2017* [1080p.BluRay.H264.AAC-RARBG] [ENG]
Kategoria: » » »
Dodane: 09/10/2017
Rozmiar: 2.49 GB
Uploader: feldfebel1 (13)
seed(ów): 52
leecher(ów): 21
Pobrane: 16
Komentarzy: 0
Pobierz Torrent Pobierz Torrent
Pobierz [Magnet] Pobierz [Magnet]

Obserwuj
Raportuj
Info

Produkcja: USA
Gatunek: Dramat, Musical
Premiera: 24 maja 2017 (świat)
Reżyseria: Wayne Blair
Scenariusz: Jessica Sharzer


Opis

Młodziutka Baby podczas nudnych wakacji spędzanych z rodziną poznaje charyzmatycznego instruktora tańca.


Obsada

? Abigail Breslin .... Baby Houseman
? Colt Prattes .... Johnny Castle
? Sarah Hyland .... Lisa Houseman
? Katey Sagal .... Vivian Pressman
? Debra Messing .... Marjorie Houseman
? Bruce Greenwood .... Dr Jake Houseman
? Nicole Scherzinger .... Penny Rivera
? Billy Dee Williams .... Tito


Dane Techniczne

Video
ID : 1
Format : AVC
Format/Info : Advanced Video Codec
Format profile : High@L4.1
Format settings, CABAC : Yes
Format settings, ReFrames : 4 frames
Codec ID : avc1
Codec ID/Info : Advanced Video Coding
Duration : 2h 10mn
Bit rate : 2 500 Kbps
Width : 1 920 pixels
Height : 1 080 pixels
Display aspect ratio : 16:9
Frame rate mode : Constant
Frame rate : 23.976 (23976/1000) fps
Color space : YUV
Chroma subsampling : 4:2:0
Bit depth : 8 bits
Scan type : Progressive
Bits/(Pixel*Frame) : 0.050
Stream size : 2.28 GiB (92%)
Writing library : x264 core 152 r2851M ba24899
Encoding settings : cabac=1 / ref=4 / deblock=1:-1:-1 / analyse=0x3:0x113 / me=umh / subme=9 / psy=1 / psy_rd=1.00:0.15 / mixed_ref=1 / me_range=24 / chroma_me=1 / trellis=2 / 8x8dct=1 / cqm=0 / deadzone=21,11 / fast_pskip=1 / chroma_qp_offset=-3 / threads=32 / lookahead_threads=4 / sliced_threads=0 / nr=0 / decimate=1 / interlaced=0 / bluray_compat=0 / constrained_intra=0 / bframes=3 / b_pyramid=2 / b_adapt=2 / b_bias=0 / direct=3 / weightb=1 / open_gop=0 / weightp=2 / keyint=250 / keyint_min=25 / scenecut=40 / intra_refresh=0 / rc_lookahead=50 / rc=2pass / mbtree=1 / bitrate=2500 / ratetol=1.0 / qcomp=0.60 / qpmin=0 / qpmax=69 / qpstep=4 / cplxblur=20.0 / qblur=0.5 / vbv_maxrate=31250 / vbv_bufsize=31250 / nal_hrd=none / filler=0 / ip_ratio=1.40 / aq=3:1.00
Encoded date : UTC 2017-10-07 10:12:44
Tagged date : UTC 2017-10-07 10:12:44

Audio
ID : 2
Format : AAC
Format/Info : Advanced Audio Codec
Format profile : LC
Codec ID : 40
Duration : 2h 10mn
Bit rate mode : Constant
Bit rate : 224 Kbps
Channel(s) : 2 channels
Channel(s)_Original : 6 channels
Channel positions : Front: L C R, Side: L R, LFE
Sampling rate : 48.0 KHz
Frame rate : 46.875 fps (1024 spf)
Compression mode : Lossy
Stream size : 209 MiB (8%)
Language : English
Default : Yes
Alternate group : 1
Encoded date : UTC 2017-10-07 10:12:44
Tagged date : UTC 2017-10-07 10:12:44
Dostępne napisy
Brak napisów
Szczegóły torrenta
Tracker http://tracker.trackerfix.com:80/announce
Multitracker [ Pokaż ]
Kategoria: » » » [Zgłoś błąd]
Dodane 09-10-2017
Podziękowali:
0 użytkowników 
Podziękuj!
Pokaż / Ukryj pliki:
Nazwa pliku Rozmiar
Dirty.Dancing.2017.1080p.BluRay.H264.AAC-RARBG.mp4 2.49 GB
RARBG.txt 0.03 KB
2 plików
Brak komentarzy...
Sitemap