Enable / Włącz Javascript
 Widok 
 Kategorie 
 Nitro Torrent w sieci 
 Top 10 użytkowników 
 Disenchantment/Rozczarowani - Sezon 1 [1080p.NF.WEB-DL.H.264.DD5.1] [Dubbing PL]

Disenchantment/Rozczarowani - Sezon 1 [1080p.NF.WEB-DL.H.264.DD5.1] [Dubbing PL] wielopaczka
Kategoria: » » » »
Dodane: 27/08/2018
Rozmiar: 9.52 GB
Uploader: Lukarusi (1)
seed(ów): 37
leecher(ów): 31
Pobrane: 140
Komentarzy: 0
Pobierz Torrent Pobierz Torrent
Pobierz [Magnet] Pobierz [Magnet]

Obserwuj
Raportuj
Info

produkcja: USA
gatunek: Animacja, Przygoda, Komedia
reżyseria: Wesley Archer, Frank Marino, David D. Au
scenariusz: Matt Groening, Josh Weinstein, Jamie Angell
muzyka: Mark Mothersbaugh
czas trwania: ok. 26-35 min.

Opis

Zbuntowana księżniczka Bean doprowadza króla do szału swoimi szaleństwami w towarzystwie znajomego elfa i demona. A obowiązki? Olać to, chodźmy na piwo.

Dane Techniczne

Format : Matroska
Format version : Version 4 / Version 2
File size : 1.46 GiB
Duration : 35 min 18 s
Overall bit rate mode : Variable
Overall bit rate : 5 901 kb/s
Encoded date : UTC 2018-08-27 12:49:02

Video
ID : 1
Format : AVC
Format/Info : Advanced Video Codec
Format profile : Main@L4
Format settings : CABAC / 3 Ref Frames
Format settings, CABAC : Yes
Format settings, ReFrames : 3 frames
Codec ID : V_MPEG4/ISO/AVC
Duration : 35 min 18 s
Bit rate mode : Variable
Bit rate : 5 620 kb/s
Maximum bit rate : 8 430 kb/s
Width : 1 920 pixels
Height : 1 080 pixels
Display aspect ratio : 16:9
Frame rate mode : Constant
Frame rate : 23.976 (24000/1001) FPS
Color space : YUV
Chroma subsampling : 4:2:0
Bit depth : 8 bits
Scan type : Progressive
Bits/(Pixel*Frame) : 0.113
Stream size : 1.36 GiB (93%)

Audio
ID : 2
Format : AC-3
Format/Info : Audio Coding 3
Codec ID : A_AC3
Duration : 35 min 18 s
Bit rate mode : Constant
Bit rate : 384 kb/s
Channel(s) : 6 channels
Channel positions : Front: L C R, Side: L R, LFE
Sampling rate : 48.0 kHz
Frame rate : 31.250 FPS (1536 SPF)
Bit depth : 16 bits
Compression mode : Lossy
Stream size : 97.0 MiB (7%)
Language : Polish
Service kind : Complete Main

Text
ID : 3
Format : UTF-8
Codec ID : S_TEXT/UTF8
Codec ID/Info : UTF-8 Plain Text
Duration : 28 min 14 s
Bit rate : 1 b/s
Count of elements : 12
Stream size : 368 Bytes (0%)
Dostępne napisy
Brak napisów
Szczegóły torrenta
Tracker http://tracker.vanitycore.co:6969/announce
Multitracker [ Pokaż ]
Kategoria: » » » » [Zgłoś błąd]
Dodane 27-08-2018
Podziękowali:
1 użytkownik 
[ Pokaż ]
Podziękuj!
Pokaż / Ukryj pliki:
Nazwa pliku Rozmiar
Disenchantment ∕ Rozczarowani S01E01 - Księżniczka, elf i demon wchodzą do baru [1080p.NF.WEB-DL.H.264.DD5.1] [Dubbing PL].mkv 1.46 GB
Disenchantment ∕ Rozczarowani S01E02 - Komu kwiczy świnia [1080p.NF.WEB-DL.H.264.DD5.1] [Dubbing PL].mkv 926.85 MB
Disenchantment ∕ Rozczarowani S01E03 - Księżniczka ciemności [1080p.NF.WEB-DL.H.264.DD5.1] [Dubbing PL].mkv 860.26 MB
Disenchantment ∕ Rozczarowani S01E04 - Zamkowa masakra wikińskim orężem [1080p.NF.WEB-DL.H.264.DD5.1] [Dubbing PL].mkv 827.02 MB
Disenchantment ∕ Rozczarowani S01E05 - Szybciej, księżniczko! Zabij! Zabij! [1080p.NF.WEB-DL.H.264.DD5.1] [Dubbing PL].mkv 1.00 GB
Disenchantment ∕ Rozczarowani S01E06 - Bagno okoliczności [1080p.NF.WEB-DL.H.264.DD5.1] [Dubbing PL].mkv 930.69 MB
Disenchantment ∕ Rozczarowani S01E07 - Pokręcone ścieżki miłości [1080p.NF.WEB-DL.H.264.DD5.1] [Dubbing PL].mkv 899.74 MB
Disenchantment ∕ Rozczarowani S01E08 - Granice nieśmiertelności [1080p.NF.WEB-DL.H.264.DD5.1] [Dubbing PL].mkv 1.04 GB
Disenchantment ∕ Rozczarowani S01E09 - Prawdziwa natura Elfo [1080p.NF.WEB-DL.H.264.DD5.1] [Dubbing PL].mkv 865.27 MB
Disenchantment ∕ Rozczarowani S01E10 - Upadek Dreamlandu [1080p.NF.WEB-DL.H.264.DD5.1] [Dubbing PL].mkv 855.90 MB
10 plików
Brak komentarzy...
Sitemap