Enable / Włącz Javascript
 Widok 
 Kategorie 
 Nitro Torrent w sieci 
 Top 10 użytkowników 
 Marjorie Prime *2017* [1080p.WEB-DL.DD5.1.H264-FGT] [ENG]

Marjorie Prime *2017* [1080p.WEB-DL.DD5.1.H264-FGT] [ENG]
Kategoria: » » »
Dodane: 09/10/2017
Rozmiar: 3.90 GB
Uploader: feldfebel1 (13)
seed(ów): 564
leecher(ów): 98
Pobrane: 9
Komentarzy: 0
Pobierz Torrent Pobierz Torrent
Pobierz [Magnet] Pobierz [Magnet]

Obserwuj
Raportuj
Info

Produkcja: USA
Gatunek: Dramat
Premiera: 23 stycznia 2017 (świat)
Reżyseria: Array
Scenariusz: Michael Almereyda


Opis

Niedaleka przyszłość. Usługa, która pozwala ludziom wskrzeszać ukochaną osobę w formie holograficznej cieszy się ogromną popularnością. Marjorie postanawia przywrócić swojego zmarłego męża, ale zdrowie nie pozwala jej na pełną opiekę nad bliskim. We wszystkim pomaga jej zaniepokojona córka wraz z małżonkiem.


Obsada

? Geena Davis .... Tess
? Jon Hamm .... Walter
? Tim Robbins .... Jon
? Lois Smith .... Marjorie
? Stephanie Andujar .... Julie
? Leslie Lyles .... Pani Salveson
? Azumi Tsutsui .... 19-letnia wnuczka Marjorie


Dane Techniczne

Video
ID : 1
Format : AVC
Format/Info : Advanced Video Codec
Format profile : High@L4
Format settings, CABAC : Yes
Format settings, ReFrames : 4 frames
Codec ID : V_MPEG4/ISO/AVC
Duration : 1 h 39 min
Bit rate : 5 128 kb/s
Width : 1 920 pixels
Height : 1 080 pixels
Display aspect ratio : 16:9
Frame rate mode : Constant
Frame rate : 23.976 (24000/1001) FPS
Color space : YUV
Chroma subsampling : 4:2:0
Bit depth : 8 bits
Scan type : Progressive
Bits/(Pixel*Frame) : 0.103
Stream size : 3.56 GiB (91%)
Title : Marjorie.Prime.2017.1080p.WEB-DL.DD5.1.H264-FGT
Language : English
Default : Yes
Forced : No
Color range : Limited
Color primaries : BT.709
Transfer characteristics : BT.709
Matrix coefficients : BT.709

Audio
ID : 2
Format : AC-3
Format/Info : Audio Coding 3
Format settings, Endianness : Big
Codec ID : A_AC3
Duration : 1 h 39 min
Bit rate mode : Constant
Bit rate : 384 kb/s
Channel(s) : 6 channels
Channel positions : Front: L C R, Side: L R, LFE
Sampling rate : 48.0 kHz
Frame rate : 31.250 FPS (1536 spf)
Bit depth : 16 bits
Compression mode : Lossy
Delay relative to video : -42 ms
Stream size : 273 MiB (7%)
Title : Marjorie.Prime.2017.1080p.WEB-DL.DD5.1.H264-FGT
Language : English
Service kind : Complete Main
Default : Yes
Forced : No

Text
ID : 3
Format : UTF-8
Codec ID : S_TEXT/UTF8
Codec ID/Info : UTF-8 Plain Text
Language : English
Default : Yes
Forced : No


Screenshot / Wideo

Dostępne napisy
Brak napisów
Szczegóły torrenta
Tracker http://tracker.trackerfix.com:80/announce
Multitracker [ Pokaż ]
Kategoria: » » » [Zgłoś błąd]
Dodane 09-10-2017
Podziękowali:
0 użytkowników 
Podziękuj!
Pokaż / Ukryj pliki:
Nazwa pliku Rozmiar
English.srt 83.04 KB
Marjorie.Prime.2017.1080p.WEB-DL.DD5.1.H264-FGT.mkv 3.90 GB
RARBG.txt 0.03 KB
3 plików
Brak komentarzy...
Sitemap