Enable / Włącz Javascript
 Widok 
 Kategorie 
 Nitro Torrent w sieci 
 Top 10 użytkowników 
 Paint It Black *2016* [1080p.WEB-DL.DD5.1.H264-FGT] [ENG]

Paint It Black *2016* [1080p.WEB-DL.DD5.1.H264-FGT] [ENG]
Kategoria: » » »
Dodane: 09/10/2017
Rozmiar: 3.35 GB
Uploader: feldfebel1 (13)
seed(ów): 208
leecher(ów): 47
Pobrane: -
Komentarzy: 0
Pobierz Torrent Pobierz Torrent
Pobierz [Magnet] Pobierz [Magnet]

Obserwuj
Raportuj
Info

Produkcja: USA
Gatunek: Dramat
Premiera: 3 czerwca 2016 (świat)
Reżyseria: Amber Tamblyn
Scenariusz: Amber Tamblyn, Ed Dougherty


Opis

Film opowiada o następstwach śmierci Michaela. Josie walczy o utrzymanie prawdziwego świata, który z nią dzielił. Szuka klucza do zrozumienia jego śmierci.


Obsada

? Alia Shawkat .... Josie
? Alfred Molina .... Cal
? Janet McTeer .... Meredith
? John Roberts .... D
? Emily Rios .... Pen
? Rhys Wakefield .... Michael
? Ken Davitian .... Piekarz Masha
? Annabelle Attanasio .... Amanda One


Dane Techniczne

Video
ID : 1
Format : AVC
Format/Info : Advanced Video Codec
Format profile : High@L4
Format settings, CABAC : Yes
Format settings, ReFrames : 5 frames
Codec ID : V_MPEG4/ISO/AVC
Duration : 1 h 36 min
Bit rate : 4 508 kb/s
Width : 1 912 pixels
Height : 792 pixels
Display aspect ratio : 2.40:1
Frame rate mode : Constant
Frame rate : 23.976 (24000/1001) FPS
Color space : YUV
Chroma subsampling : 4:2:0
Bit depth : 8 bits
Scan type : Progressive
Bits/(Pixel*Frame) : 0.124
Stream size : 3.03 GiB (90%)
Title : Paint.It.Black.2016.1080p.WEB-DL.DD5.1.H264-FGT
Language : English
Default : Yes
Forced : No
Color range : Limited
Color primaries : BT.709
Transfer characteristics : BT.709
Matrix coefficients : BT.709

Audio
ID : 2
Format : AC-3
Format/Info : Audio Coding 3
Format settings, Endianness : Big
Codec ID : A_AC3
Duration : 1 h 36 min
Bit rate mode : Constant
Bit rate : 384 kb/s
Channel(s) : 6 channels
Channel positions : Front: L C R, Side: L R, LFE
Sampling rate : 48.0 kHz
Frame rate : 31.250 FPS (1536 spf)
Bit depth : 16 bits
Compression mode : Lossy
Delay relative to video : -42 ms
Stream size : 264 MiB (8%)
Title : Paint.It.Black.2016.1080p.WEB-DL.DD5.1.H264-FGT
Language : English
Service kind : Complete Main
Default : Yes
Forced : No

Text
ID : 3
Format : UTF-8
Codec ID : S_TEXT/UTF8
Codec ID/Info : UTF-8 Plain Text
Language : English
Default : Yes
Forced : No


Screenshot / Wideo

Dostępne napisy
Brak napisów
Szczegóły torrenta
Tracker http://tracker.trackerfix.com:80/announce
Multitracker [ Pokaż ]
Kategoria: » » » [Zgłoś błąd]
Dodane 09-10-2017
Podziękowali:
0 użytkowników 
Podziękuj!
Pokaż / Ukryj pliki:
Nazwa pliku Rozmiar
English.srt 48.57 KB
Paint.It.Black.2016.1080p.WEB-DL.DD5.1.H264-FGT.mkv 3.35 GB
RARBG.txt 0.03 KB
3 plików
Brak komentarzy...
Sitemap