Enable / Włącz Javascript
 Widok 
 Kategorie 
 Nitro Torrent w sieci 
 Top 10 użytkowników 
 The Show *2017* [1080p.BluRay.x264.DTS-CHD] [ENG]

The Show *2017* [1080p.BluRay.x264.DTS-CHD] [ENG]
Kategoria: » » »
Dodane: 03/11/2017
Rozmiar: 8.22 GB
Uploader: feldfebel1 (13)
seed(ów): 331
leecher(ów): 110
Pobrane: 28
Komentarzy: 0
Pobierz Torrent Pobierz Torrent
Pobierz [Magnet] Pobierz [Magnet]

Obserwuj
Raportuj
Info

Produkcja: USA
Gatunek: Dramat
Czas trwania: 104 min.
Premiera: 11.03.2017 - Świat
Reżyseria: Giancarlo Esposito
Scenariusz: Noah Pink, Kenny Yakkel


Opis

Film opowiada o kontrowersyjnym reality show, którego uczestnicy umierają na oczach widzów, aby w ten sposób dostarczyć im rozrywki.


Obsada

Sarah Wayne Callies,
Famke Janssen,
Josh Duhamel,
Giancarlo Esposito


Dane Techniczne

Video
ID : 1
Format : AVC
Format/Info : Advanced Video Codec
Format profile : High@L4.1
Format settings, CABAC : Yes
Format settings, ReFrames : 4 frames
Codec ID : V_MPEG4/ISO/AVC
Duration : 1 h 44 min
Bit rate : 9 701 kb/s
Width : 1 920 pixels
Height : 1 036 pixels
Display aspect ratio : 1.85:1
Frame rate mode : Constant
Frame rate : 23.976 (24000/1001) FPS
Color space : YUV
Chroma subsampling : 4:2:0
Bit depth : 8 bits
Scan type : Progressive
Bits/(Pixel*Frame) : 0.203
Stream size : 7.12 GiB (87%)
Language : English
Default : Yes
Forced : No

Audio
ID : 2
Format : DTS
Format/Info : Digital Theater Systems
Mode : 16
Format settings, Endianness : Big
Codec ID : A_DTS
Duration : 1 h 44 min
Bit rate mode : Constant
Bit rate : 1 509 kb/s
Channel(s) : 6 channels
Channel positions : Front: L C R, Side: L R, LFE
Sampling rate : 48.0 kHz
Frame rate : 93.750 FPS (512 spf)
Bit depth : 24 bits
Compression mode : Lossy
Stream size : 1.11 GiB (13%)
Language : English
Default : Yes
Forced : No


Screenshot / Wideo

Dostępne napisy
Brak napisów
Szczegóły torrenta
Tracker http://tracker.trackerfix.com:80/announce
Multitracker [ Pokaż ]
Kategoria: » » » [Zgłoś błąd]
Dodane 03-11-2017
Podziękowali:
0 użytkowników 
Podziękuj!
Pokaż / Ukryj pliki:
Nazwa pliku Rozmiar
RARBG.txt 0.03 KB
The.Show.2017.1080p.BluRay.x264.DTS-CHD.mkv 8.22 GB
2 plików
Brak komentarzy...
Sitemap